最新免费电影电视剧下载-HEVC-H265BT

 找回密码
 立即注册
搜索
查看: 99016|回复: 106

[纯净版] 神奇女侠1984.IMAX 2160p 10bit HDR WEBRip 6CH X265 HEVC

  [复制链接]

该用户从未签到

阅读权限10

主题:
1

帖子:
1

精华:
0

金币:
32 个

威望:
0 个

贡献:
0 点

我的勋章
发表于 2021-1-15 14:48:55 | 显示全部楼层 |阅读模式
本帖最后由 holyswordking 于 2021-1-15 15:43 编辑


                               
登录/注册后可看大图

《神奇女侠1984》是由美国华纳兄弟影片公司出品 ,派蒂·杰金斯执导,盖尔·加朵克里斯·派恩克里斯汀·韦格佩德罗·帕斯卡等人主演的奇幻动作片。
影片设定在五光十色、充满诱惑的80年代。讲述了神奇女侠戴安娜在华盛顿的自然历史博物馆过着与普通人无异的生活,然而在阻止了一场看似平常的劫案后,身边的一切都发生了变化的故事。

屏幕截图 2021-01-15 142531_wps图片(1).jpg

屏幕截图 2021-01-15 142740(1).jpg

屏幕截图 2021-01-15 142822(1).jpg

屏幕截图 2021-01-15 143323(1).jpg
Format                         : Matroska
Format version                 : Version 4
File size                      : 2.82 GiB
Duration                       : 2 h 31 min
Overall bit rate               : 2 670 kb/s
Movie name                     : PSArips.com | Wonder.Woman.1984.2020.IMAX.2160p.10bit.HDR.WEBRip.6CH.x265.HEVC-PSA.mkv
Encoded date                   : UTC 2020-12-27 12:59:41
Writing application            : mkvmerge v51.0.0 ('I Wish') 64-bit
Writing library                : libebml v1.4.0 + libmatroska v1.6.2

Video
ID                             : 1
Format                         : HEVC
Format/Info                    : High Efficiency Video Coding
Format profile                 : Main 10@L5@Main
HDR format                     : SMPTE ST 2086, HDR10 compatible
Codec ID                       : V_MPEGH/ISO/HEVC
Duration                       : 2 h 31 min
Bit rate                       : 2 461 kb/s
Width                          : 3 840 pixels
Height                         : 2 024 pixels
Display aspect ratio           : 1.897
Frame rate mode                : Constant
Frame rate                     : 23.976 (24000/1001) FPS
Color space                    : YUV
Chroma subsampling             : 4:2:0
Bit depth                      : 10 bits
Bits/(Pixel*Frame)             : 0.013
Stream size                    : 2.60 GiB (92%)
Default                        : Yes
Forced                         : No
Color range                    : Limited
Color primaries                : BT.2020
Transfer characteristics       : PQ
Matrix coefficients            : BT.2020 non-constant
Mastering display color primar : Display P3
Mastering display luminance    : min: 0.0001 cd/m2, max: 1000 cd/m2
Maximum Content Light Level    : 596 cd/m2
Maximum Frame-Average Light Le : 200 cd/m2

Audio
ID                             : 2
Format                         : AAC LC SBR
Format/Info                    : Advanced Audio Codec Low Complexity with Spectral Band Replication
Commercial name                : HE-AAC
Format settings                : Explicit
Codec ID                       : A_AAC-2
Duration                       : 2 h 31 min
Bit rate                       : 206 kb/s
Channel(s)                     : 6 channels
Channel layout                 : C L R Ls Rs LFE
Sampling rate                  : 48.0 kHz
Frame rate                     : 23.438 FPS (2048 SPF)
Compression mode               : Lossy
Delay relative to video        : 23 ms
Stream size                    : 223 MiB (8%)
Language                       : English
Default                        : Yes
Forced                         : No

Text #1
ID                             : 3
Format                         : UTF-8
Codec ID                       : S_TEXT/UTF8
Codec ID/Info                  : UTF-8 Plain Text
Duration                       : 2 h 26 min
Bit rate                       : 46 b/s
Count of elements              : 1871
Stream size                    : 50.3 KiB (0%)
Language                       : English
Default                        : Yes
Forced                         : No

Text #2
ID                             : 4
Format                         : UTF-8
Codec ID                       : S_TEXT/UTF8
Codec ID/Info                  : UTF-8 Plain Text
Duration                       : 2 h 26 min
Bit rate                       : 51 b/s
Count of elements              : 3167
Stream size                    : 55.1 KiB (0%)
Title                          : SDH
Language                       : English
Default                        : No
Forced                         : No
中文字幕: Wonder.Woman.1984.2020.IMAX.2160p.10bit.HDR.WEBRip.6CH.x265.HEVC-PSA_1610691759522.zip (70.68 KB, 下载次数: 2)

Wonder.Woman.1984.2020.IMAX.2160p.10bit.HDR.WEBRip.6CH.x265.HEVC-PSA (1).torrent

15.59 KB, 下载次数: 3569

回复

使用道具 举报

  • TA的每日心情
    开心
    2021-7-7 05:58
  • 签到天数: 255 天

    连续签到: 1 天

    [LV.8]以坛为家I

    制片人

    UID:132

    阅读权限70

    主题:
    0

    帖子:
    275

    精华:
    0

    金币:
    1423 个

    威望:
    0 个

    贡献:
    0 点

    我的勋章
    发表于 2021-6-23 23:07:15 | 显示全部楼层
    看到这样的好资源真是高兴!感谢【HEVC-H265】的无私分享!

    比我早的属于插队,比我晚的都算迟到!
    回复 支持 反对

    使用道具 举报

  • TA的每日心情
    慵懒
    2021-3-22 09:07
  • 签到天数: 1 天

    连续签到: 1 天

    [LV.1]初来乍到

    阅读权限10

    主题:
    0

    帖子:
    3

    精华:
    0

    金币:
    24 个

    威望:
    0 个

    贡献:
    0 点

    我的勋章
    发表于 2021-3-22 09:09:02 | 显示全部楼层
    好资源真是高兴看到这样的好资源真是高兴!感谢【HEVC-H265】的无私分享!

    该会员没有填写今日想说内容.
    回复 支持 反对

    使用道具 举报

    该用户从未签到

    阅读权限10

    主题:
    0

    帖子:
    12

    精华:
    0

    金币:
    26 个

    威望:
    0 个

    贡献:
    0 点

    我的勋章
    发表于 2021-2-11 19:37:18 | 显示全部楼层
    强烈支持楼主ing……【HEVC-H265】就是给力啊!

    回复 支持 反对

    使用道具 举报

    该用户从未签到

    阅读权限10

    主题:
    0

    帖子:
    3

    精华:
    0

    金币:
    15 个

    威望:
    0 个

    贡献:
    0 点

    我的勋章
    发表于 2021-2-4 22:55:46 | 显示全部楼层
    种子文件加载失败,不知是何原因

    回复 支持 反对

    使用道具 举报

    该用户从未签到

    阅读权限10

    主题:
    0

    帖子:
    1

    精华:
    0

    金币:
    3 个

    威望:
    0 个

    贡献:
    0 点

    我的勋章
    发表于 2021-2-4 01:51:04 | 显示全部楼层
    支持一波!!!

    回复

    使用道具 举报

  • TA的每日心情
    慵懒
    半小时前
  • 签到天数: 307 天

    连续签到: 10 天

    [LV.8]以坛为家I

    阅读权限70

    主题:
    3

    帖子:
    348

    精华:
    0

    金币:
    1458 个

    威望:
    0 个

    贡献:
    0 点

    我的勋章
    发表于 2021-1-16 18:23:35 | 显示全部楼层
    看到这样的好资源真是高兴!感谢【HEVC-H265】的无私分享!

    该会员没有填写今日想说内容.
    回复 支持 反对

    使用道具 举报

    后4082 该用户已被删除
    发表于 2021-1-15 17:11:16 | 显示全部楼层
    提示: 作者被禁止或删除 内容自动屏蔽
    回复 支持 反对

    使用道具 举报

    该用户从未签到

    阅读权限30

    主题:
    0

    帖子:
    134

    精华:
    0

    金币:
    144 个

    威望:
    0 个

    贡献:
    0 点

    我的勋章
    发表于 2021-1-15 17:10:35 | 显示全部楼层
    求沙发

    回复 支持 反对

    使用道具 举报

    查1914 该用户已被删除
    发表于 2021-1-15 17:07:56 | 显示全部楼层
    提示: 作者被禁止或删除 内容自动屏蔽
    回复 支持 反对

    使用道具 举报

    您需要登录后才可以回帖 登录 | 立即注册

    本版积分规则

    Archiver|手机版|小黑屋|

    GMT+8, 2021-7-24 15:58 , Processed in 0.190027 second(s), 52 queries .

    Powered by Discuz! X3.2

    © 2001-2013 Comsenz Inc.

    快速回复 返回顶部 返回列表