最新免费电影电视剧下载-HEVC-H265BT

 找回密码
 立即注册
搜索
查看: 69443|回复: 103

[纯净带字幕版] 【百度云】五十度飞.Fifty Shades Freed.2018.US.UNRATED.BluRay.1920x1080p.x264.DTS-HD-KOOK.[中英双字] 12.5GB

  [复制链接]
  • TA的每日心情
    奋斗
    2020-5-16 23:46
  • 签到天数: 129 天

    连续签到: 1 天

    [LV.7]常住居民III

    制片人

    UID:16

    阅读权限70

    主题:
    89

    帖子:
    401

    精华:
    0

    金币:
    1071 个

    威望:
    6 个

    贡献:
    0 点

    我的勋章
    发表于 2019-11-18 07:33:56 | 显示全部楼层 |阅读模式
    419468b3c404bd9be09c090414287b82.jpg




    ※※※※※※※ 影片信息 ※※※※※※※


    ◎片   名 Fifty Shades Freed
    ◎译   名 五十度飞 / 五十度灰3 / 格雷的五十道色戒3(港) / 格雷的五十道阴影:自由(台) / 五十度自由
    ◎年   代 2018
    ◎国   家 美国
    ◎类   别 剧情 / 爱情 / 情色
    ◎语   言 英语
    ◎上映日 期 2018-02-09(美国)
    ◎字   幕 中英双字/简体字幕/繁体字幕/英文字幕
    ◎IMDB 评分  4.4/10 from 24114 users
    ◎豆瓣 评分  5.2/10 from 7310 users
    ◎视频尺 寸  1920x1080p
    ◎片   长 1.50.18
    ◎导   演 詹姆斯·弗雷
    ◎编   剧  E·L·詹姆斯 / 尼尔·伦纳德
    ◎主   演 达科塔·约翰逊 / 詹米·多南 / 阿莉尔·凯贝尔 / 埃里克·约翰逊 / 瑞塔·奥拉



    ◎简  介


         格雷和安娜结婚了。婚后,霸道总裁和“灰姑娘”似乎“从此过上了幸福的生活”:私人飞机、海滩度假、豪宅等等。然而,这一切戛然而止。最让安娜害怕的事发生了——昔日上司杰克回归,并劫持了她....




    ※※※※※※※ 参数信息 ※※※※※※※


    General
    Unique ID                      : 175409721621058501769881972044906898101 (0x83F6AEFC85573BECA6830C0AEB0422B5)


    Format                         : Matroska
    Format version                 : Version 4 / Version 2
    File size                      : 12.6 GiB
    Duration                       : 1 h 50 min
    Overall bit rate               : 16.3 Mb/s
    Movie name                     : KOOK
    Encoded date                   : UTC 2018-05-02 11:09:13
    Writing application            : mkvmerge v9.4.2 ('So High') 64bit
    Writing library                : libebml v1.3.4 + libmatroska v1.4.5
    Attachments                    : fzgljw.ttf / fzlbfw.ttf / fzlbjw.ttf / 正式海报 美国.jpg


    Video
    ID                             : 1
    Format                         : AVC
    Format/Info                    : Advanced Video Codec
    Format profile                 : High@L4.1
    Format settings, CABAC         : Yes
    Format settings, ReFrames      : 4 frames
    Codec ID                       : V_MPEG4/ISO/AVC
    Duration                       : 1 h 50 min
    Bit rate                       : 13.0 Mb/s
    Width                          : 1 920 pixels
    Height                         : 1 080 pixels
    Display aspect ratio           : 16:9
    Frame rate mode                : Variable
    Frame rate                     : 23.976 FPS
    Color space                    : YUV
    Chroma subsampling             : 4:2:0
    Bit depth                      : 8 bits
    Scan type                      : Progressive
    Bits/(Pixel*Frame)             : 0.261
    Stream size                    : 10.0 GiB (80%)
    Writing library                : x264 core 148 r2721+46 0c4b09a xiaowan [8-bit@all X86_64]
    Encoding settings              : cabac=1 / ref=4 / deblock=1:1:1 / analyse=0x3:0x133 / me=umh / subme=10 / psy=1 / fade_compensate=0.00 / psy_rd=0.30:0.00 / mixed_ref=1 / me_range=24 / chroma_me=1 / trellis=2 / 8x8dct=1 / cqm=0 / deadzone=21,11 / fast_pskip=1 / chroma_qp_offset=-2 / threads=12 / lookahead_threads=1 / sliced_threads=0 / nr=0 / decimate=1 / interlaced=0 / bluray_compat=0 / constrained_intra=0 / fgo=0 / bframes=3 / b_pyramid=2 / b_adapt=2 / b_bias=0 / direct=3 / weightb=1 / open_gop=0 / weightp=2 / keyint=240 / keyint_min=1 / scenecut=60 / intra_refresh=0 / rc_lookahead=60 / rc=2pass / mbtree=1 / bitrate=13000 / ratetol=1.0 / qcomp=0.50 / qpmin=0:0:0 / qpmax=69:69:69 / qpstep=4 / cplxblur=20.0 / qblur=0.5 / ip_ratio=1.40 / aq=2:0.80 / aq-sensitivity=10.00 / aq-factor=1.00:1.00:1.00 / aq2=0 / aq3=0
    Default                        : Yes
    Forced                         : No
    Color range                    : Limited
    Matrix coefficients            : BT.709


    Audio
    ID                             : 2
    Format                         : DTS
    Format/Info                    : Digital Theater Systems
    Format profile                 : X / MA / Core
    Mode                           : 16
    Format settings, Endianness    : Big
    Codec ID                       : A_DTS
    Duration                       : 1 h 50 min
    Bit rate mode                  : Variable / Variable / Constant
    Bit rate                       : 3 315 kb/s / 3 315 kb/s / 1 509 kb/s
    Channel(s)                     : Object Based / 8 channels / 6 channels
    Channel positions              : Object Based / Front: L C R, Side: L R, Back: L R, LFE / Front: L C R, Side: L R, LFE
    Sampling rate                  :  / 48.0 kHz / 48.0 kHz
    Frame rate                     : 93.750 FPS (512 spf)
    Bit depth                      :  / 24 bits / 24 bits
    Compression mode               :  / Lossless / Lossy
    Stream size                    : 2.55 GiB (20%)
    Title                          : Fifty.Shades.Freed.2018.UNRATED.1080p.BluRay.REMUX.AVC.DTS-X.7.1-FGT
    Language                       : English
    Default                        : Yes
    Forced                         : No


    Text #1
    ID                             : 3
    Format                         : ASS
    Codec ID                       : S_TEXT/ASS
    Codec ID/Info                  : Advanced Sub Station Alpha
    Duration                       : 1 h 47 min
    Bit rate                       : 347 b/s
    Count of elements              : 1947
    Compression mode               : Lossless
    Stream size                    : 274 KiB (0%)
    Title                          : 中英字幕
    Language                       : Chinese
    Default                        : Yes
    Forced                         : No


    Text #2
    ID                             : 4
    Format                         : ASS
    Codec ID                       : S_TEXT/ASS
    Codec ID/Info                  : Advanced Sub Station Alpha
    Duration                       : 1 h 47 min
    Bit rate                       : 200 b/s
    Count of elements              : 1947
    Compression mode               : Lossless
    Stream size                    : 158 KiB (0%)
    Title                          : 简体字幕
    Language                       : Chinese
    Default                        : No
    Forced                         : No


    Text #3
    ID                             : 5
    Format                         : ASS
    Codec ID                       : S_TEXT/ASS
    Codec ID/Info                  : Advanced Sub Station Alpha
    Duration                       : 1 h 47 min
    Bit rate                       : 200 b/s
    Count of elements              : 1947
    Compression mode               : Lossless
    Stream size                    : 158 KiB (0%)
    Title                          : 繁体字幕
    Language                       : Chinese
    Default                        : No
    Forced                         : No


    Text #4
    ID                             : 6
    Format                         : ASS
    Codec ID                       : S_TEXT/ASS
    Codec ID/Info                  : Advanced Sub Station Alpha
    Duration                       : 1 h 47 min
    Bit rate                       : 264 b/s
    Count of elements              : 1905
    Compression mode               : Lossless
    Stream size                    : 208 KiB (0%)
    Title                          : 英文字幕
    Language                       : English
    Default                        : No
    Forced                         : No


    Menu
    00:00:00.000                   : en:Chapter 01
    00:05:32.957                   : en:Chapter 02
    00:13:26.263                   : en:Chapter 03
    00:21:26.159                   : en:Chapter 04
    00:26:51.860                   : en:Chapter 05
    00:30:39.546                   : en:Chapter 06
    00:34:15.428                   : en:Chapter 07
    00:39:07.345                   : en:Chapter 08
    00:43:25.185                   : en:Chapter 09
    00:49:14.660                   : en:Chapter 10
    00:53:16.276                   : en:Chapter 11
    00:57:46.921                   : en:Chapter 12
    01:01:28.184                   : en:Chapter 13
    01:07:16.449                   : en:Chapter 14
    01:14:46.565                   : en:Chapter 15
    01:20:35.247                   : en:Chapter 16
    01:28:10.285                   : en:Chapter 17
    01:33:12.628                   : en:Chapter 18
    01:37:56.912                   : en:Chapter 19
    01:43:46.094                   : en:Chapter 20



    百度云分享链接
    链接:https://pan.baidu.com/s/1Qmj_-pitzs1xEO_BKLebKg
    提取码:0ng5
    复制这段内容后打开百度网盘手机App,操作更方便哦


    比我早的属于插队,比我晚的都算迟到!
    回复

    使用道具 举报

    001hgfp72a 该用户已被删除
    发表于 2019-11-18 07:35:39 | 显示全部楼层
    提示: 作者被禁止或删除 内容自动屏蔽
    回复 支持 反对

    使用道具 举报

    该用户从未签到

    阅读权限20

    主题:
    0

    帖子:
    40

    精华:
    0

    金币:
    50 个

    威望:
    0 个

    贡献:
    0 点

    我的勋章
    发表于 2019-11-18 07:42:43 | 显示全部楼层
    楼猪V5啊

    回复 支持 反对

    使用道具 举报

    wmsacvoydm 该用户已被删除
    发表于 2019-11-18 07:49:27 | 显示全部楼层
    提示: 作者被禁止或删除 内容自动屏蔽
    回复 支持 反对

    使用道具 举报

    02rzenfm5b 该用户已被删除
    发表于 2019-11-18 07:58:49 | 显示全部楼层
    提示: 作者被禁止或删除 内容自动屏蔽
    回复 支持 反对

    使用道具 举报

    该用户从未签到

    阅读权限20

    主题:
    0

    帖子:
    54

    精华:
    0

    金币:
    64 个

    威望:
    0 个

    贡献:
    0 点

    我的勋章
    发表于 2019-11-18 08:23:08 | 显示全部楼层
    看起来好像不错的样子

    回复 支持 反对

    使用道具 举报

    贲芦雪 该用户已被删除
    发表于 2019-11-18 08:26:23 | 显示全部楼层
    提示: 作者被禁止或删除 内容自动屏蔽
    回复 支持 反对

    使用道具 举报

    3doph22e75 该用户已被删除
    发表于 2019-11-18 08:28:43 | 显示全部楼层
    提示: 作者被禁止或删除 内容自动屏蔽
    回复 支持 反对

    使用道具 举报

    李寄蓝 该用户已被删除
    发表于 2019-11-18 08:54:34 | 显示全部楼层
    提示: 作者被禁止或删除 内容自动屏蔽
    回复 支持 反对

    使用道具 举报

    国叶飞 该用户已被删除
    发表于 2019-11-18 09:30:26 | 显示全部楼层
    提示: 作者被禁止或删除 内容自动屏蔽
    回复 支持 反对

    使用道具 举报

    您需要登录后才可以回帖 登录 | 立即注册

    本版积分规则

    Archiver|手机版|小黑屋|

    GMT+8, 2020-9-23 23:10 , Processed in 0.532150 second(s), 49 queries .

    Powered by Discuz! X3.2

    © 2001-2013 Comsenz Inc.

    快速回复 返回顶部 返回列表