最新免费电影电视剧下载-HEVC-H265BT

 找回密码
 立即注册
搜索
查看: 71101|回复: 104

[纯净带字幕版] 【百度云】五十度黑.Fifty Shades Darker.2017.US.UNRATED.BluRay.1920x800p.x264.DTS-KOOK.[中英双字]9.3G

  [复制链接]
  • TA的每日心情
    奋斗
    2020-5-16 23:46
  • 签到天数: 129 天

    连续签到: 1 天

    [LV.7]常住居民III

    制片人

    UID:16

    阅读权限70

    主题:
    89

    帖子:
    401

    精华:
    0

    金币:
    1071 个

    威望:
    6 个

    贡献:
    0 点

    我的勋章
    发表于 2019-11-18 07:30:55 | 显示全部楼层 |阅读模式
    cf0c8b92f2ac7d2a43a1e8952a92f62a.jpg




    ※※※※※※※ 影片信息 ※※※※※※※


    ◎片   名 Fifty Shades Darker
    ◎译   名 五十度黑 / 格雷的五十道色戒2(港) / 格雷的五十道阴影:束缚(台) / 五十度灰2 / 50 Shades Darker
    ◎年   代 2017
    ◎国   家 美国
    ◎类   别 剧情 / 爱情 / 情色
    ◎语   言 英语
    ◎上映日 期 2017-02-10(美国)
    ◎字   幕 中英双字/简体字幕/繁体字幕/英文字幕
    ◎IMDB 评分  4.6/10 from 56833 users
    ◎豆瓣 评分  4.9/10 from 22229 users
    ◎视频尺 寸  1920x800p
    ◎片   长 2.11.28
    ◎导   演 詹姆斯·弗雷
    ◎编     剧  尼尔·伦纳德 / E·L·詹姆斯
    ◎主   演 达科塔·约翰逊 / 詹米·多南 / 埃里克·约翰逊 / 艾洛斯·慕福特 / 贝拉·希思科特




    ◎简  介


      年度争议大作《五十度灰》即将在2月13日北美上映,近日,导演萨姆·泰勒-约翰逊,主演詹米·多南和达科塔·约翰逊在纽约一场影片粉丝放映会上,向到场的观众宣布了《五十度灰2》和《五十度灰3》已经确定拍摄的消息。
      据MTV透露,《五十度灰2》和《五十度灰3》将根据E.L.詹姆斯所著的《五十度黑》(《Fifty Shades Darker》)和《五十度飞》(《Fifty Shades Freed》)改编,达科塔·约翰逊饰演女主角安娜斯塔西娅·斯蒂尔也将再次登上大银幕。
       安娜(达科塔·约翰逊饰演)在出版业有了一份新工作,看上去很开心,但无法拒绝克里斯蒂安·格雷(詹米·多南饰演)侵略性的追求。在他保证有所改变之后,两人迅速和好了,但很快,他的嫉妒倾向压倒了一切。他买下了她工作的公司,出于不知名的原因偷到了她的银行账户信息,而且禁止她出差,不过她老板卢克·葛莱姆斯也确实没安好心。克里斯蒂安·格雷与安娜旧情复燃后,格雷前女友莱拉(金·贝辛格饰)出现,都让这段虐恋再生变数




    ※※※※※※※ 参数信息 ※※※※※※※


    General
    Unique ID                      : 220290102516211433207087475605189375349 (0xA5BA549AEA290953B25B6E942F4F3575)


    Format                         : Matroska
    Format version                 : Version 4 / Version 2
    File size                      : 9.30 GiB
    Duration                       : 2 h 11 min
    Overall bit rate               : 10.1 Mb/s
    Movie name                     : Fifty.Shades.Darker.2017.UNRATED.1080p.BluRay.x264.DTS-HDC
    Encoded date                   : UTC 2017-10-12 14:31:02
    Writing application            : mkvmerge v9.4.2 ('So High') 64bit
    Writing library                : libebml v1.3.4 + libmatroska v1.4.5
    Attachments                    : 正式海报 美国.jpg / msyhbd.ttf / msyh.ttf


    Video
    ID                             : 1
    Format                         : AVC
    Format/Info                    : Advanced Video Codec
    Format profile                 : Main@L4
    Format settings, CABAC         : Yes
    Format settings, ReFrames      : 1 frame
    Codec ID                       : V_MPEG4/ISO/AVC
    Duration                       : 2 h 11 min
    Bit rate                       : 8 700 kb/s
    Width                          : 1 920 pixels
    Height                         : 800 pixels
    Display aspect ratio           : 2.40:1
    Frame rate mode                : Constant
    Frame rate                     : 23.976 (23976/1000) FPS
    Color space                    : YUV
    Chroma subsampling             : 4:2:0
    Bit depth                      : 8 bits
    Scan type                      : Progressive
    Bits/(Pixel*Frame)             : 0.236
    Stream size                    : 7.88 GiB (85%)
    Writing library                : x264 core 125
    Encoding settings              : cabac=1 / ref=1 / deblock=1:0:0 / analyse=0x1:0x131 / me=hex / subme=6 / psy=1 / psy_rd=1.00:0.00 / mixed_ref=0 / me_range=16 / chroma_me=1 / trellis=0 / 8x8dct=0 / cqm=0 / deadzone=21,11 / fast_pskip=1 / chroma_qp_offset=-2 / threads=4 / lookahead_threads=1 / sliced_threads=0 / nr=0 / decimate=1 / interlaced=0 / bluray_compat=0 / constrained_intra=0 / bframes=0 / weightp=2 / keyint=12 / keyint_min=7 / scenecut=40 / intra_refresh=0 / rc_lookahead=12 / rc=abr / mbtree=1 / bitrate=8700 / ratetol=1.0 / qcomp=0.60 / qpmin=6 / qpmax=51 / qpstep=4 / ip_ratio=1.40 / aq=1:1.00
    Default                        : Yes
    Forced                         : No


    Audio
    ID                             : 2
    Format                         : DTS
    Format/Info                    : Digital Theater Systems
    Mode                           : 16
    Format settings, Endianness    : Big
    Codec ID                       : A_DTS
    Duration                       : 2 h 11 min
    Bit rate mode                  : Constant
    Bit rate                       : 1 509 kb/s
    Channel(s)                     : 6 channels
    Channel positions              : Front: L C R, Side: L R, LFE
    Sampling rate                  : 48.0 kHz
    Frame rate                     : 93.750 FPS (512 spf)
    Bit depth                      : 24 bits
    Compression mode               : Lossy
    Stream size                    : 1.39 GiB (15%)
    Title                          : Fifty.Shades.Darker.2017.UNRATED.1080p.BluRay.x264.DTS-HDC
    Language                       : English
    Default                        : Yes
    Forced                         : No


    Text #1
    ID                             : 3
    Format                         : ASS
    Codec ID                       : S_TEXT/ASS
    Codec ID/Info                  : Advanced Sub Station Alpha
    Duration                       : 2 h 9 min
    Bit rate                       : 208 b/s
    Count of elements              : 1497
    Compression mode               : Lossless
    Stream size                    : 198 KiB (0%)
    Title                          : 中英字幕
    Language                       : Chinese
    Default                        : Yes
    Forced                         : No


    Text #2
    ID                             : 4
    Format                         : ASS
    Codec ID                       : S_TEXT/ASS
    Codec ID/Info                  : Advanced Sub Station Alpha
    Duration                       : 2 h 9 min
    Bit rate                       : 127 b/s
    Count of elements              : 1497
    Compression mode               : Lossless
    Stream size                    : 120 KiB (0%)
    Title                          : 简体字幕
    Language                       : Chinese
    Default                        : No
    Forced                         : No


    Text #3
    ID                             : 5
    Format                         : ASS
    Codec ID                       : S_TEXT/ASS
    Codec ID/Info                  : Advanced Sub Station Alpha
    Duration                       : 2 h 9 min
    Bit rate                       : 127 b/s
    Count of elements              : 1497
    Compression mode               : Lossless
    Stream size                    : 120 KiB (0%)
    Title                          : 繁体字幕
    Language                       : Chinese
    Default                        : No
    Forced                         : No


    Text #4
    ID                             : 6
    Format                         : ASS
    Codec ID                       : S_TEXT/ASS
    Codec ID/Info                  : Advanced Sub Station Alpha
    Duration                       : 2 h 9 min
    Bit rate                       : 114 b/s
    Count of elements              : 1497
    Compression mode               : Lossless
    Stream size                    : 108 KiB (0%)
    Title                          : 英文字幕
    Language                       : English
    Default                        : No
    Forced                         : No


    Menu
    00:00:00.000                   : en:00:00:00.000
    00:05:47.722                   : en:00:05:47.722
    00:13:14.460                   : en:00:13:14.460
    00:18:18.055                   : en:00:18:18.055
    00:24:45.359                   : en:00:24:45.359
    00:29:19.675                   : en:00:29:19.675
    00:37:25.201                   : en:00:37:25.201
    00:44:31.794                   : en:00:44:31.794
    00:50:22.394                   : en:00:50:22.394
    00:57:58.058                   : en:00:57:58.058
    01:06:01.958                   : en:01:06:01.958
    01:11:54.936                   : en:01:11:54.936
    01:24:49.876                   : en:01:24:49.876
    01:30:39.851                   : en:01:30:39.851
    01:35:40.651                   : en:01:35:40.651
    01:41:00.221                   : en:01:41:00.221
    01:48:53.735                   : en:01:48:53.735
    01:55:57.701                   : en:01:55:57.701
    02:01:38.374                   : en:02:01:38.374
    02:05:32.149                   : en:02:05:32.149



    百度云分享链接
    链接:https://pan.baidu.com/s/1TYkjOcegZCBt6n6FV2T1Dg
    提取码:uzb8


    比我早的属于插队,比我晚的都算迟到!
    回复

    使用道具 举报

    23m2mm78ns 该用户已被删除
    发表于 2019-11-18 07:31:11 | 显示全部楼层
    提示: 作者被禁止或删除 内容自动屏蔽
    回复 支持 反对

    使用道具 举报

    该用户从未签到

    阅读权限20

    主题:
    0

    帖子:
    46

    精华:
    0

    金币:
    56 个

    威望:
    0 个

    贡献:
    0 点

    我的勋章
    发表于 2019-11-18 07:38:11 | 显示全部楼层
    求沙发

    回复 支持 反对

    使用道具 举报

    ntbiewufvc 该用户已被删除
    发表于 2019-11-18 07:40:13 | 显示全部楼层
    提示: 作者被禁止或删除 内容自动屏蔽
    回复 支持 反对

    使用道具 举报

    吉漾漾 该用户已被删除
    发表于 2019-11-18 07:42:02 | 显示全部楼层
    提示: 作者被禁止或删除 内容自动屏蔽
    回复 支持 反对

    使用道具 举报

    ukdlzegwvq 该用户已被删除
    发表于 2019-11-18 07:51:58 | 显示全部楼层
    提示: 作者被禁止或删除 内容自动屏蔽
    回复 支持 反对

    使用道具 举报

    mpatogbkrh 该用户已被删除
    发表于 2019-11-18 07:54:30 | 显示全部楼层
    提示: 作者被禁止或删除 内容自动屏蔽
    回复 支持 反对

    使用道具 举报

    luliqiyhme 该用户已被删除
    发表于 2019-11-18 08:13:21 | 显示全部楼层
    提示: 作者被禁止或删除 内容自动屏蔽
    回复 支持 反对

    使用道具 举报

    丁辰3100 该用户已被删除
    发表于 2019-11-18 08:15:23 | 显示全部楼层
    提示: 作者被禁止或删除 内容自动屏蔽
    回复 支持 反对

    使用道具 举报

    j3vphsp291 该用户已被删除
    发表于 2019-11-18 08:48:43 | 显示全部楼层
    提示: 作者被禁止或删除 内容自动屏蔽
    回复 支持 反对

    使用道具 举报

    您需要登录后才可以回帖 登录 | 立即注册

    本版积分规则

    Archiver|手机版|小黑屋|

    GMT+8, 2020-9-24 01:37 , Processed in 0.363792 second(s), 46 queries .

    Powered by Discuz! X3.2

    © 2001-2013 Comsenz Inc.

    快速回复 返回顶部 返回列表